#TITLE:Star Wars;
#SUBTITLE:(Pitch Mix);
#ARTIST:MC F 40;
#TITLETRANSLIT:;
#SUBTITLETRANSLIT:;
#ARTISTTRANSLIT:;
#CREDIT:;
#BANNER:SW.png;
#BACKGROUND:Star-Wars.png;
#LYRICSPATH:;
#CDTITLE:cdtitle.png;
#MUSIC:Star Wars (Pitch Mix).mp3;
#OFFSET:0.000;
#SAMPLESTART:10.375;
#SAMPLELENGTH:17.551;
#SELECTABLE:YES;
#BPMS:0.000=179.998;
#STOPS:;
#BGCHANGES:;
// cache tags:
#FIRSTBEAT:0.500;
#LASTBEAT:282.917;
#SONGFILENAME:Songs/Music V.I.P ^_^/Star Wars/Star Wars.sm;
#HASMUSIC:1;
#HASBANNER:1;
#MUSICLENGTH:94.249;
// end cache tags

//---------------dance-single - ----------------
#NOTES:
     dance-single:
     :
     Challenge:
     15:
     1.000,1.000,1.000,1.000,1.000,961.000,209.000,163.000,10.000,26.000:
0000
0000
1000
0000
0000
0000
0000
0000
0000
0000
0000
0000
0000
0000
0000
0100
,
0010
0001
0000
0000
0000
0000
0000
0000
0000
0000
0000
0000
0000
0000
0000
1000
,
0100
0010
0000
0000
0000
0001
0000
0000
0000
1000
0000
0000
0000
0000
0100
0010
,
0001
0000
0000
0000
0000
0000
1000
0000
0000
0100
0000
0000
0000
0000
0001
0000
,
1000
0100
0000
0000
0000
0000
0010
0000
0000
1000
0000
0000
0000
0100
0010
0000
,
0001
1000
0000
0000
0000
0100
0000
0000
0000
0010
0000
0000
0000
1000
0000
0000
,
0001
0000
0000
0000
0000
0100
0000
0000
0000
0010
0000
0000
0000
1000
0000
0000
,
0000
0001
0000
1000
0000
0001
0000
1000
0000
0100
0000
0010
0000
1000
0000
0000
,
0000
1000
0001
1000
0001
0000
0100
0010
0100
0000
0110
0000
1001
0000
1000
0001
,
0100
0010
0100
0000
0010
1001
0000
1001
0000
0100
0010
0100
0000
0001
1000
0001
,
1000
0100
0010
0100
0010
1000
0001
0000
0100
0000
0100
0010
1000
0010
1000
0000
,
0101
0000
0100
1010
0100
0001
1010
0100
0010
1000
0001
1000
0001
0100
1000
0110
,
0001
0010
1100
0110
0000
1000
0101
1000
0001
1000
0101
0000
0101
0010
1000
0010
,
1000
0001
0100
1001
0100
0010
1000
0001
1100
0001
1000
0101
1000
0110
0001
1010
,
0000
1001
0000
0100
1001
0110
1000
0120
0030
1001
0100
1001
0100
0001
0110
0100
,
0010
0001
1010
0100
1001
0101
0000
1000
0110
0010
1000
0001
1000
0001
0100
0000
,
0110
0000
0000
0010
0000
0000
1001
0000
0000
0100
0000
0000
0010
0000
0000
1100
0000
0000
0001
0000
0000
0000
0000
0000
1201
0300
0000
0010
0000
0000
1001
0000
0100
0000
0010
0000
0001
0000
0000
0100
0000
0020
0030
0000
0000
0110
0000
2000
,
3000
0000
0000
0100
0000
0000
0010
0000
0002
0103
0000
0000
1010
0000
0000
0000
0000
0000
1101
0000
0020
0030
0000
0100
1001
0000
0000
0000
0000
0000
0101
0000
0000
1000
0000
0000
0010
0000
1000
0100
0000
0001
0010
0000
0000
0100
0000
1000
,
0011
0000
0000
0000
0100
0000
1010
0000
0000
0101
0000
0000
1010
0000
0000
0001
0000
0000
0100
0000
0000
0000
0000
0011
0010
0000
0000
0100
1000
0000
0010
0000
0001
0100
0000
0000
0010
0000
0000
1001
0000
0100
0000
0000
0101
0000
0000
1000
,
0010
0000
0000
0000
0000
0000
0000
0000
0000
0000
0000
0000
0100
0000
0000
0000
0000
0000
0000
0000
0001
0000
0000
0000
0010
0000
0000
0000
0000
0000
0000
0000
0000
0000
0000
0000
1000
0000
0000
0000
0000
0000
0000
0000
0000
0000
0000
0000
0100
0000
0000
0000
0000
0000
0000
0000
0000
0000
0000
0000
0001
0000
0000
0000
0000
0000
0000
0000
0000
0000
0000
0000
0000
0000
0000
0000
0000
0000
0000
0000
0000
0000
0000
0000
0101
0000
0000
0000
0000
0000
0000
0000
0000
0000
0000
0000
0000
0000
0000
0000
0000
0000
0000
0000
0000
0000
0000
0000
1010
0000
0000
0000
0000
0000
0000
0000
0010
0000
0000
0000
0001
0000
0000
0000
0000
0000
0000
0000
0000
0000
0000
0000
1010
0000
0000
0000
0000
0000
0000
0000
0000
0000
0000
0000
0000
0000
0000
0001
0000
0000
0000
0000
0000
0000
0000
0000
0100
0000
0000
0000
0000
0000
0000
0000
0000
1001
0000
0000
0010
0000
0000
0000
0000
0000
0000
0000
0000
0000
0000
0000
0100
0000
0000
0001
0000
0000
0000
0000
0000
0000
0000
0000
,
0100
0000
0000
0000
0000
0000
0000
0000
0000
0000
0000
0000
0010
0000
0000
0000
0000
0000
0000
0000
0000
0001
0000
0000
0100
0000
0000
0000
0000
0000
0000
0000
0000
0000
0000
0000
1010
0000
0000
0000
0000
0000
0000
0000
0000
0000
0000
0000
0010
0000
0000
0000
0000
0000
0001
0000
0100
0000
0000
0000
0000
0000
0000
0000
0000
0000
0000
0000
0000
0000
0000
0000
0110
0000
0000
0000
0000
0000
0000
0000
0000
0000
0000
0000
0002
0000
0000
0000
0003
0000
0000
0000
0000
0000
0000
0000
0110
0000
0000
0000
0000
0000
0000
0000
1000
0000
0000
0000
0000
0000
0000
0000
0001
0000
0000
0000
0000
0000
0000
0000
0100
0000
0000
0000
0000
0000
0000
0000
0000
0000
0000
0000
0001
0000
0000
0000
0010
0000
0000
0000
0000
0000
0000
0000
1000
0000
0000
0000
0000
0000
0000
0000
0100
0000
0000
0000
0001
0000
0000
0000
0000
0000
0000
0000
0010
0000
0000
0000
1000
0000
0000
0000
0000
0000
0000
0000
0000
0000
0000
0000
0001
0000
0000
0000
0200
0000
0000
0000
0000
0000
0000
0000
,
0300
1000
0000
0100
0001
0000
0010
0000
0000
0101
0000
1000
0010
0000
0001
0100
0000
1000
0010
0000
0001
0000
0100
0000
1000
0010
0000
0001
0100
0000
1000
0010
0000
0001
0000
1000
0100
0000
0000
0011
0000
1000
0100
0000
0000
0012
0003
0000
,
1010
0000
0000
0101
0000
0011
1000
0000
0000
0100
0022
0033
1000
0000
0001
0100
0000
0010
0000
1000
0000
0101
0000
0010
0000
1000
0000
0100
0010
0000
1001
0000
0000
0110
0000
1000
0001
0010
0000
1100
0000
0001
0010
0100
0000
0001
0000
1000
,
0100
0001
0000
1010
0000
0001
0100
1000
0000
0010
0001
0200
0000
0320
0030
1000
0000
0000
0100
0000
0000
1000
0000
0000
0100
0000
0000
0000
0000
0000
0100
0000
0000
0010
0000
0000
0100
0000
0000
0000
0000
0000
0110
0000
0000
0010
0000
0000
,
0000
0000
0000
1000
0000
0000
0000
0000
0110
0000
0000
0000
0001
0000
0000
0000
0110
0000
0000
0000
0000
0000
0000
0000
0100
0000
0000
0000
0000
0000
0110
0000
0000
0000
0000
0000
0010
0000
0000
0000
0000
0110
0000
0000
0000
1000
0000
0000
,
0000
0000
0110
0000
0000
0000
0000
0000
0000
0100
0000
0000
0000
0000
0110
0000
0000
0000
0000
0000
0000
0010
0000
0000
0000
0000
0000
0000
0000
0110
0000
0000
0000
0000
0000
0000
0001
0000
0000
0000
0000
0000
0110
0000
0000
0000
0000
0000
,
1000
0000
0000
0000
0000
0000
0110
0000
0000
0000
0000
0000
0100
0000
0000
0000
0000
0000
0000
0000
0000
0010
0000
0000
0000
0000
0000
0000
0000
0110
0000
0000
0000
0000
0000
0000
0001
0000
0000
0000
0000
0110
0000
0000
0000
0000
0000
0000
,
1000
0000
0000
0110
0000
0000
0000
0000
0000
0100
0000
0000
0000
0000
0110
0000
0000
0000
0000
0000
0000
0010
0000
0000
0000
0000
0000
0110
0000
0000
0000
0000
0000
0001
0000
0000
0000
0000
0000
0000
0000
0000
0000
0000
0000
2000
0000
0000
,
0000
0000
0000
0000
0000
0000
0000
0000
0000
0000
0000
0000
0000
3000
0100
0000
,
0000
0000
0010
0000
0001
0000
1000
0000
0001
0000
0100
0000
0010
0000
0100
0010
,
0200
0000
0000
0000
0000
0000
0000
0000
0000
0000
0000
0000
0000
0000
0000
0000
0000
0000
0000
0000
0000
0000
0000
0000
0000
0000
0000
0000
0300
0000
1000
0000
0000
0000
0000
0000
0000
0000
0000
0001
0000
0000
0100
0000
0000
0010
0000
0000
,
0000
0000
0000
0200
0000
0000
0000
0000
0000
0000
0000
0000
0000
0000
0000
0000
0000
0000
0000
0000
0000
0000
0000
0000
0000
0000
0000
0000
0000
0000
0000
0000
0000
0000
0000
0000
0000
0000
0000
0000
0000
0300
0000
0000
0000
0001
0000
0000
,
1000
0200
0000
0000
0000
0000
0000
0000
0000
0000
0000
0000
0000
0300
0010
0000
,
0000
1000
0000
0000
0001
0000
0100
0000
0010
0000
0000
0000
0001
0000
0000
0200
,
0010
0000
0000
0000
0000
0000
0000
0000
0000
0000
0000
0010
0300
0000
1000
0001
,
0200
0000
0000
0000
0000
0000
0000
0000
0000
0000
0000
0000
0300
0000
0010
1000
,
0220
0000
0000
0000
0000
0000
0000
0000
0000
0000
0000
0000
0000
0000
0000
0000
0000
0000
0000
0000
0000
0000
0000
0000
0000
0000
0000
0000
0000
0000
0000
0000
0000
0000
0000
0000
0000
0000
0000
0000
0000
0000
0000
0000
0000
0000
0000
0000
0000
0000
0000
0000
0000
0000
0000
0000
0000
0000
0000
0000
0000
0000
0000
0000
0000
0000
0000
0000
0000
0000
0000
0000
0030
0300
0000
0000
0000
0000
0000
0000
0000
0000
0000
0000
0010
0000
0000
0000
0000
0000
0000
0000
0000
0000
0000
0000
0000
0000
0000
0000
0000
0000
0000
0000
0000
0000
0000
0000
0000
0000
0000
0000
0000
0000
0000
0000
0000
0000
0000
0000
0000
0000
0000
0000
0000
0000
0000
0000
0000
0000
0000
0000
0000
0000
0000
0000
0000
0000
0000
0000
0000
0000
0000
0000
0000
0000
0000
0000
0000
0000
0000
0000
0000
0000
0000
0000
1000
0000
0000
0000
0000
0000
0000
0000
0000
0000
0000
0000
0001
0000
0000
0000
0000
0000
0000
0000
0000
0000
0000
0000
0000
0000
0000
0000
0000
0000
0000
0000
0000
0000
0000
0000
,
0212
0000
0000
0000
0000
0000
0000
0000
0000
0000
0000
0000
0000
0000
0000
0000
0000
0000
0000
0000
0003
0300
0000
0000
0010
0000
0000
0000
0000
0000
0000
0000
0000
0000
0000
0000
0000
0000
0000
0000
0000
0000
1001
0000
0000
0200
1010
0000
,
0000
0000
0000
0000
0000
0000
0000
0000
0000
0000
0000
0010
0300
1000
0001
2200
,
0000
0000
0000
0000
0000
0000
0000
0000
0000
0000
0000
3311
0000
0010
0000
1000
,
0220
0000
0000
0000
0000
0000
0000
0000
0000
0000
0000
0000
0000
0000
0000
0030
0310
0000
0000
0000
0000
0000
0000
0000
0000
0000
0001
0000
1000
0000
0202
0000
,
0000
0000
0000
0000
0000
0000
0000
0000
0000
0000
0000
0000
0000
0000
0000
0000
0000
0000
0000
0000
0000
0000
0000
0000
0000
0000
0000
0000
0000
0000
0000
0000
0000
0000
0000
0000
0000
0000
0000
0000
0000
0000
0000
0000
0000
0000
0000
0000
1013
0300
0000
0000
0000
0000
0000
0000
0000
0000
0000
0000
0000
0000
0000
0000
0000
0000
0000
0000
0000
0000
0000
0000
0011
0000
0000
0000
0000
0000
0000
0000
0000
0000
0000
0000
0000
0000
0000
0000
0000
0000
0000
0000
0000
0000
0000
0000
0000
0000
0000
0000
0000
0000
0000
0000
0000
0000
0000
0000
0000
0000
0000
0000
0000
0000
0000
0000
0000
0000
0000
0000
0000
0000
0000
0000
0000
0000
0000
0000
0000
0000
0000
0000
0000
0000
0000
0000
0000
0000
0000
0000
0000
0000
0000
0000
0000
0000
0000
0000
0000
0000
0000
0000
0000
0000
0000
0000
0100
0000
0000
0000
0000
0000
0000
0000
0000
0000
0000
0000
0000
0000
0000
0000
0000
0000
0000
0000
0020
0000
0000
0000
0000
0000
0000
0000
0000
0000
0000
0000
0000
0000
0000
0000
,
0000
0000
0000
2030
0000
0000
0000
0000
0000
3020
0000
0000
0000
0000
0000
0000
0230
0000
0000
0000
0000
0000
0302
0000
,
0000
0000
0000
0000
0203
0000
0000
0000
0300
0000
0020
0000
0000
2030
0000
0000
3002
0000
0000
2003
0000
0000
0000
0000
,
3010
0000
0000
0100
0001
0000
0000
0000
1000
0110
0000
0000
0001
0000
0100
1000
0000
0000
0011
0000
0000
1000
0100
0000
0001
0000
1010
0000
0000
0000
0101
0000
0000
0010
1000
0000
0100
0000
0001
0010
1000
0000
0100
0000
0001
0000
0010
0000
,
1000
0000
0001
0100
0010
0000
1000
0000
0001
0100
0010
0000
0100
0000
0001
1000
0010
0000
0101
0000
1000
0000
0010
0000
0100
0000
1000
0001
0010
0000
0100
0000
1000
0001
0010
0000
0100
0000
1001
0000
0100
0000
0010
0000
1001
0100
0000
0000
,
0010
0000
0100
1000
0010
0000
0001
0000
1000
0100
0000
0000
0011
0000
0100
1000
0000
0000
0011
0000
1100
0000
0000
0000
0101
0000
0000
0010
1000
0000
0101
0000
0000
0110
1000
0000
0000
0000
0100
0001
1000
0000
0010
0000
1100
0001
0000
0000
,
1010
0000
0000
0000
0000
0000
0000
0000
0100
0000
0000
0000
0001
0000
0000
0000
0000
0000
0000
0000
0000
0000
0000
0000
1100
0000
0000
0000
0000
0000
0000
0000
0001
0000
0000
0000
0010
0000
0000
0000
1000
0000
0000
0000
0000
0000
0000
0000
0100
0000
0000
0000
0000
0000
0000
0000
0001
0000
0000
0000
0010
0000
0000
0000
1000
0000
0000
0000
0000
0000
0000
0000
0100
0000
0000
0000
0000
0000
0001
0000
0000
0000
0000
0000
0000
0000
0000
0000
0000
0000
0010
0000
0000
0000
0000
0000
1100
0000
0000
0000
0001
0000
0000
0000
0000
0000
0000
0000
0000
0000
0000
0000
0010
0000
0000
0000
0000
0000
0000
0000
1100
0000
0000
0000
0001
0000
0000
0000
0000
0000
0000
0000
0120
0000
0000
0000
0030
0000
0000
0000
0000
0000
0000
0000
0002
0000
0000
0000
0000
0000
0000
0000
1003
0000
0000
0000
0010
0000
0000
0000
0000
0000
0000
0000
0000
0000
0000
0000
1100
0000
0000
0000
0000
0000
0000
0000
0000
0000
0000
0000
0011
0000
0000
0000
0000
0000
0000
0000
0000
0000
0000
0000
,
1100
0000
0000
0000
0000
0000
0000
0000
0100
0000
0000
0000
0100
0000
0000
0000
0001
0000
0000
0000
0000
0000
0000
0000
0010
0000
0000
0000
0200
0000
0000
0000
0300
0000
0000
0000
1000
0000
0000
0000
0000
0000
0000
0000
0020
0000
0000
0000
0031
0000
0000
0000
0000
0000
0000
0000
0100
0000
0000
0000
1000
0000
0000
0000
0000
0000
0000
0000
0010
0000
0000
0000
0001
0000
0000
0000
1000
0000
0000
0000
0000
0000
0000
0000
0100
0000
0000
0000
0001
0000
0000
0000
0000
0000
0000
0000
1000
0000
0000
0000
0000
0000
0000
0000
0001
0000
0000
0000
0110
0000
0000
0000
1000
0000
0000
0000
0000
0000
0000
0000
0000
0000
0000
0000
0000
0000
0000
0000
0001
0000
0000
0000
0110
0000
0000
0000
0000
0000
0000
0000
0000
0000
0000
0000
1200
0000
0000
0000
0000
0000
0000
0000
0000
0000
0000
0000
0301
0000
0000
0000
0000
0000
0000
0000
0000
0000
0000
0000
1000
0000
0000
0010
0000
0000
0000
0000
0000
0000
0000
0000
0101
0000
0000
0000
0000
0000
0010
0000
0000
0000
0000
0000
,
1000
0000
0000
0100
0010
0000
1000
0000
0001
0100
0000
0000
1010
0000
0000
0101
0000
1000
0010
0000
0100
0001
1000
0000
0010
0000
0200
0000
0001
0300
0010
0000
1000
0000
0020
0000
0100
0031
1000
0000
0000
0100
0000
1000
0010
0000
0000
0100
0001
0000
1000
0000
0210
0000
0000
0000
1001
0000
0000
0300
1010
0000
0000
0100
,
0000
1010
0000
0001
0100
0000
0010
0000
1100
0000
0000
0000
0001
0100
0000
0000
0010
1000
0002
0000
0100
0013
0000
0000
0100
0000
0000
0020
1001
0000
0030
0200
0000
0000
2300
0002
0010
3000
0003
0000
0100
0000
0010
0000
1001
0000
0101
0000
0200
1000
0320
0000
0030
0000
1001
0000
0100
0000
0002
0003
1110
0000
0100
0002
,
0013
0000
0000
0000
1200
0300
0000
0000
0011
0000
0000
2000
3000
0000
0000
0012
0103
0000
0000
0210
0300
0000
0000
1002
0103
0000
0000
0000
0000
0001
0000
0200
0310
0000
0000
0200
1300
0000
0020
0030
0001
0000
2000
3000
0100
0000
0002
0003
0000
0000
1000
0000
0010
0000
0002
0003
2100
3000
0000
0000
0010
0000
0000
1000
,
0101
0000
0000
0000
0001
1000
0100
0000
0000
0000
0010
0000
1001
0000
0100
0000
0001
0010
0000
0000
1100
0000
0000
0002
0013
0000
2000
3000
0100
0000
0001
0000
0010
2100
3020
0030
0002
0203
0300
0000
2010
3000
0000
0100
0001
0000
0020
0030
1000
0200
0300
0000
0011
2000
3000
0000
0100
0002
0003
0000
2010
3000
0000
0100
,
0000
0000
0000
0001
0120
0030
0000
0000
1010
0000
0100
0000
1020
0030
0000
0000
0001
0200
0300
0020
1030
0000
0002
0003
0200
0300
0020
0030
2010
3000
0000
0000
1002
0003
0000
0000
0110
0000
0000
2000
3100
0000
0002
0003
0000
0000
1000
0000
0010
0000
0000
0002
0103
0000
0000
0000
1110
0000
0000
0000
0000
0000
0000
0100
,
1001
0000
0000
0010
0000
1000
0110
0000
0001
0000
0010
0000
1000
0001
0000
0020
0030
0200
0300
0000
1100
0000
0000
0010
0001
0000
1000
0000
0210
0300
0000
1000
0001
0000
0100
0000
0010
1000
0000
0100
0001
0010
0000
1000
0000
0100
0000
0010
0100
0000
1001
0000
0010
0000
1000
0000
0101
0000
0000
1010
0001
0100
0000
0020
,
1000
0002
0133
0000
0000
0000
0000
0010
1100
0002
0003
0000
0000
0010
1000
0000
0101
0000
0010
1000
0000
0100
0000
1010
0101
0000
0000
0100
0010
0001
1000
0000
0112
0003
0000
2100
3010
0000
0001
0000
0100
0010
1000
0000
0001
0000
0210
0300
1000
0000
0000
1110
0001
0000
0010
0000
0100
1000
0001
0000
0120
0030
1000
0101
,
0010
0000
0000
2000
3101
0010
0000
0000
0111
0000
2000
3010
0101
0000
0010
0000
1001
0110
0000
0000
1011
0000
0100
0000
1011
0000
0000
0110
1001
0000
0000
0101
0010
1000
0000
0001
0110
0000
2000
3100
0010
0000
0002
0003
0110
0000
1000
0000
0000
0000
0020
0030
0001
0000
0100
0000
2010
3000
0000
0200
0301
0000
0000
2000
,
3010
0000
0200
0300
0000
0002
0003
0000
1000
0010
0000
0200
0300
0000
0000
0000
0010
0002
0003
0000
1000
0000
0010
0000
0100
0000
0021
0030
1000
0000
0000
0110
0001
0000
0000
0000
1102
0003
0000
0001
0110
0000
0000
2200
3300
0010
0000
0002
0103
0000
2000
3000
0010
0000
0001
0100
1000
0000
2000
3010
0001
0000
0100
0010
,
0000
2000
3000
0000
0110
0001
0000
0000
0100
1000
0000
0020
0132
0003
0000
0000
2020
3030
0000
0000
0210
2300
3000
0000
0002
0013
0000
0000
1200
0300
0020
0030
0001
0000
2200
3300
0020
0030
0001
0000
0100
0002
1003
0020
0030
0000
0200
0300
0010
0002
0003
0000
1200
0300
0010
0000
1001
0100
0000
0000
1020
0032
0003
0000
,
0100
0001
1000
0100
0010
0000
0012
1113
0100
0000
0000
2001
3010
0000
0200
0302
1003
0000
0210
0300
0001
1000
0000
0100
0000
0002
0003
2000
3100
0000
0010
0000
0200
0300
0000
0002
0013
0000
1000
0000
0101
0000
0000
0000
0010
0000
0220
0330
1000
0000
0012
0003
0000
2000
3000
0000
0100
0000
0000
0020
0130
0000
0000
0000
,
0000
2222
0000
0000
0000
3333
0000
0000
0000
0000
0000
0000
0000
0000
0000
0000
0000
0000
0000
0000
1000
0000
0000
0000
0000
0000
0000
0000
0000
0000
0000
0000
0001
0000
0000
0000
0000
0000
0000
0000
0100
0000
0000
0000
0010
0000
0000
0000
0000
0000
0000
0000
1000
0000
0000
0000
0001
0000
0000
0000
0000
0000
0000
0000
,
0000
0100
0010
0000
1000
0000
0001
0000
0000
0000
0100
0000
0000
0000
0010
0000
,
0000
0000
0000
0000
0000
0000
1000
0000
0001
0000
0100
0000
0000
0010
0000
1000
,
0000
0000
0000
0001
0000
0000
0000
0000
0000
0000
0100
0000
0000
0000
0010
0000
,
0000
0000
0000
1000
0000
0000
0000
0100
0000
0010
0000
1000
0001
0000
0000
0000
,
0100
0000
0010
1000
0000
0001
0000
0100
0000
0000
0010
0000
0000
0000
1000
0001
,
0000
0000
0000
0000
0000
0100
0000
0010
1000
0000
0001
0000
0000
0100
0010
0000
,
0000
0001
0000
0000
1000
0000
0100
0010
,
0000
0001
0000
0000
0000
1000
0000
0000
0000
0001
0000
0000
0100
0000
0010
0000
,
0000
0000
0000
0000
0000
1000
0000
0000
0000
0001
0000
0000
0100
0000
0010
1000
,
0001
0000
0000
0000
0000
0000
0000
0000
0000
0000
0000
0000
0100
0000
0000
0000
0000
0000
0000
0000
0000
0000
0000
0000
0010
0000
0000
0000
0000
0000
0000
0000
0000
0000
0000
0000
1001
0000
0000
0000
0000
0000
0000
0000
0000
0000
0000
0000
0000
0000
0000
0000
0000
0000
0000
0000
0000
0000
0000
0000
0010
0000
0000
2000
0000
0000
3100
0000
0000
0000
0000
0000
1011
0000
0000
0000
0100
0000
0000
0000
1001
0100
0000
0000
0110
0000
0000
0000
0000
0000
1000
0000
0010
0000
0000
0000
0201
0000
0000
0000
1310
0000
0000
0000
0000
0000
0000
0000
1011
0000
0000
0000
0100
0000
0000
0000
0020
0000
0000
0000
1131
0000
0000
0000
0000
0000
0000
0000
0000
0000
0000
0000
1MM1
0000
0000
0000
MMMM
0000
0000
0000
MMMM
0000
0000
0000
0000
0000
0000
0000
0000
0000
0000
0000
0000
0000
0000
0000
0000
0000
0000
0000
0000
0000
0000
0000
0000
0000
0000
0000
0000
0000
0000
0000
0000
0000
0000
0000
0000
0000
0000
0000
0000
0000
0000
0000
0000
0000
0000
0000
0000
0000
0000
0000
;
